[1080P-TS] 江涛 生日礼物 CCTV3天天把歌唱现场LIVE

https://v.qq.com/x/page/m0362aman65.html

文件信息

General
ID : 1 (0x1)
Complete name : C:\Users\Yang\Downloads\江涛生日礼物(20151127天天把歌唱).ts
Format : MPEG-TS
File size : 345 MiB
Duration : 3 min 39 s
Overall bit rate mode : Variable
Overall bit rate : 13.1 Mb/s

Video
ID : 256 (0x100)
Menu ID : 1 (0x1)
Format : AVC
Format/Info : Advanced Video Codec
Format profile : High@L4
Format settings : 1 Ref Frames
Format settings, CABAC : No
Format settings, ReFrames : 1 frame
Format settings, GOP : M=1, N=25
Codec ID : 27
Duration : 3 min 40 s
Bit rate : 12.1 Mb/s
Width : 1 920 pixels
Height : 1 080 pixels
Display aspect ratio : 16:9
Frame rate mode : Variable
Color space : YUV
Chroma subsampling : 4:2:0
Bit depth : 8 bits
Scan type : Progressive
Stream size : 319 MiB (92%)

Audio
ID : 257 (0x101)
Menu ID : 1 (0x1)
Format : AC-3
Format/Info : Audio Coding 3
Codec ID : 129
Duration : 3 min 40 s
Bit rate mode : Constant
Bit rate : 320 kb/s
Channel(s) : 2 channels
Channel positions : Front: L R
Sampling rate : 48.0 kHz
Frame rate : 31.250 FPS (1536 SPF)
Bit depth : 16 bits
Compression mode : Lossy
Delay relative to video : -8 ms
Stream size : 8.42 MiB (2%)
Service kind : Complete Main

Menu
ID : 4096 (0x1000)
Menu ID : 1 (0x1)
Duration : 3 min 39 s
List : 256 (0x100) (AVC) / 257 (0x101) (AC-3)
Service name : 璁惧
Service provider : FFmpeg
Service type : digital television

资源下载此资源下载价格为2金币,请先
如有发现链接失效,请联系网站管理
资源下载
下载价格:2 金币
VIP优惠:免费
如有发现链接失效,请联系网站管理
0

评论0

请先

只要资源在百度网盘,分享的链接就有几率被和谐。如果遇到此类问题,联系网站管理员补链接即可。如果还有未尽事宜,我们将本着公平合理的原则,与您友好协调解决!
没有账号? 注册  忘记密码?