[1080P] 周杰伦2013魔天伦世界巡回演唱会

General
Complete name : 周杰倫Jay Chou《2013魔天倫演唱會OPUS JAY WORLD TOUR》22.mp4
Format : MPEG-4
Format profile : Base Media
Codec ID : isom (isom/iso2/avc1/mp41)
File size : 1.53 GiB
Duration : 56 min 11 s
Overall bit rate : 3 906 kb/s
Writing application : Lavf57.66.102

Video
ID : 1
Format : AVC
Format/Info : Advanced Video Codec
Format profile : High@L4
Format settings, CABAC : Yes
Format settings, RefFrames : 3 frames
Codec ID : avc1
Codec ID/Info : Advanced Video Coding
Duration : 56 min 11 s
Bit rate : 3 772 kb/s
Width : 1 920 pixels
Height : 1 080 pixels
Display aspect ratio : 16:9
Frame rate mode : Constant
Frame rate : 29.970 (30000/1001) FPS
Color space : YUV
Chroma subsampling : 4:2:0
Bit depth : 8 bits
Scan type : Progressive
Bits/(Pixel*Frame) : 0.061
Stream size : 1.48 GiB (97%)
Color range : Limited
Color primaries : BT.709
Transfer characteristics : BT.709
Matrix coefficients : BT.709

Audio
ID : 2
Format : AAC
Format/Info : Advanced Audio Codec
Format profile : LC
Codec ID : 40
Duration : 56 min 11 s
Bit rate mode : Constant
Bit rate : 126 kb/s
Channel(s) : 2 channels
Channel positions : Front: L R
Sampling rate : 44.1 kHz
Frame rate : 43.066 FPS (1024 SPF)
Compression mode : Lossy
Stream size : 50.5 MiB (3%)
Default : Yes
Alternate group : 1

 

资源下载此资源下载价格为2金币,请先
如有发现链接失效,请联系网站管理
资源下载
下载价格:2 金币
VIP优惠:免费
如有发现链接失效,请联系网站管理
0

评论26

请先

  1. 看密码
    sorakeyblades10-03
  2. 还能下载吗????????????
    我不是杨幂09-13
  3. yhubeiwuhan06-04
  4. 下载地址呢?怎么没有啊
    jay520pmb05-15
  5. [1080P] 周杰伦2013魔天伦世界巡回演唱会
    ychwang03-24
  6. 谢谢分享
    yuyuxp09-17
  7. 谢谢
  8. 感谢楼主分享
    keerp09-12
  9. 哈哈哈哈
    cktlovezmj09-03
  10. 稀饭
    135685861108-11
  11. 如果当时
    tdw198604-18
  12. 周末来报到
  13. 感谢分享 棒棒滴
  14. 楼主辛苦了,谢谢分享!
  15. 楼主辛苦了,谢谢分享!
    Isabel晴01-23
  16. 周杰伦的演唱会都是连续两天的
  17. 谢谢诶分享
  18. 谢谢了。真的不错。
    我心依旧01-11
  19. jay 有
  20. 有点nb哦
    Uzziel12-16
  21. 再赞赞赞
  22. 谢谢
    谢谢11-11
  23. 周杰伦的演唱会都是连续两天的
    刀刀11-06
  24. 谢谢分享,这个资源不错。
    A8Club11-03
  25. 感谢分享。。。。。
    请输入您的QQ号11-01
只要资源在百度网盘,分享的链接就有几率被和谐。如果遇到此类问题,联系网站管理员补链接即可。如果还有未尽事宜,我们将本着公平合理的原则,与您友好协调解决!
没有账号? 注册  忘记密码?