NiziU - Need U (Bugs-1080p-606M)

NiziU - Need U (Bugs-1080p-606M).mp4

文件信息:
Complete name : NiziU - Need U (Bugs-1080p-606M).mp4
Format : MPEG-4
Format profile : Base Media / Version 2
Codec ID : mp42 (isom/mp41/mp42)
File size : 607 MiB
Duration : 4 min 12 s
Overall bit rate mode : Variable
Overall bit rate : 20.2 Mb/s
Movie name : MV Master 1009 HD
Movie_More : This video is about MV Master 1009 HD
Performer : JIMMY
Encoded date : UTC 2021-11-10 06:57:24
Tagged date : UTC 2021-11-10 07:04:18
thmb : ÿØÿà

Video
ID : 2
Format : AVC
Format/Info : Advanced Video Codec
Format profile : High@L4
Format settings : CABAC / 2 Ref Frames
Format settings, CABAC : Yes
Format settings, Reference fra : 2 frames
Codec ID : avc1
Codec ID/Info : Advanced Video Coding
Duration : 4 min 12 s
Bit rate mode : Variable
Bit rate : 20.0 Mb/s
Maximum bit rate : 768 kb/s
Width : 1 920 pixels
Height : 1 080 pixels
Display aspect ratio : 16:9
Frame rate mode : Constant
Frame rate : 23.976 (24000/1001) FPS
Color space : YUV
Chroma subsampling : 4:2:0
Bit depth : 8 bits
Scan type : Progressive
Bits/(Pixel*Frame) : 0.403
Stream size : 602 MiB (99%)
Title : Core Media Video
Encoded date : UTC 2021-11-10 06:57:24
Tagged date : UTC 2021-11-10 07:04:18
Color range : Limited
Color primaries : BT.709
Transfer characteristics : BT.709
Matrix coefficients : BT.709
Codec configuration box : avcC

Audio
ID : 1
Format : AAC LC
Format/Info : Advanced Audio Codec Low Complexity
Codec ID : mp4a-40-2
Duration : 4 min 12 s
Source duration : 4 min 12 s
Bit rate mode : Constant
Bit rate : 128 kb/s
Channel(s) : 2 channels
Channel layout : L R
Sampling rate : 48.0 kHz
Frame rate : 46.875 FPS (1024 SPF)
Compression mode : Lossy
Stream size : 3.89 MiB (1%)
Source stream size : 3.89 MiB (1%)
Title : Core Media Audio
Language : English
Encoded date : UTC 2021-11-10 06:57:24
Tagged date : UTC 2021-11-10 07:04:18

资源下载此资源下载价格为2金币,请先
如有发现链接失效,请联系网站管理
资源下载
下载价格:2 金币
如有发现链接失效,请联系网站管理
0

评论0

请先

只要资源在百度网盘,分享的链接就有几率被和谐。如果遇到此类问题,联系网站管理员补链接即可。如果还有未尽事宜,我们将本着公平合理的原则,与您友好协调解决!
没有账号? 注册  忘记密码?