aespa - Savage (The Performance Stage 1)(Master-2160p-1.62G)

aespa - Savage (The Performance Stage 1)(Master-2160p-1.62G).mp4

文件信息:
Complete name : aespa - Savage (The Performance Stage 1)(Master-2160p-1.62G).mp4
Format : MPEG-4
Format profile : Base Media / Version 2
Codec ID : mp42 (mp42/mp41)
File size : 1.63 GiB
Duration : 4 min 7 s
Overall bit rate mode : Variable
Overall bit rate : 56.5 Mb/s
Encoded date : UTC 2021-10-04 17:17:50
Tagged date : UTC 2021-10-04 17:18:12
TIM : 00;00;00;00
TSC : 30000
TSZ : 1001

Video
ID : 1
Format : AVC
Format/Info : Advanced Video Codec
Format profile : High@L5.1
Format settings : CABAC / 3 Ref Frames
Format settings, CABAC : Yes
Format settings, Reference fra : 3 frames
Format settings, GOP : M=1, N=30
Codec ID : avc1
Codec ID/Info : Advanced Video Coding
Duration : 4 min 7 s
Bit rate : 56.1 Mb/s
Width : 3 840 pixels
Height : 2 160 pixels
Display aspect ratio : 16:9
Frame rate mode : Constant
Frame rate : 29.970 (30000/1001) FPS
Color space : YUV
Chroma subsampling : 4:2:0
Bit depth : 8 bits
Scan type : Progressive
Bits/(Pixel*Frame) : 0.226
Stream size : 1.62 GiB (99%)
Language : English
Encoded date : UTC 2021-10-04 17:17:50
Tagged date : UTC 2021-10-04 17:17:50
Codec configuration box : avcC

Audio
ID : 2
Format : AAC LC
Format/Info : Advanced Audio Codec Low Complexity
Codec ID : mp4a-40-2
Duration : 4 min 7 s
Source duration : 4 min 7 s
Bit rate mode : Variable
Bit rate : 317 kb/s
Maximum bit rate : 421 kb/s
Channel(s) : 2 channels
Channel layout : L R
Sampling rate : 48.0 kHz
Frame rate : 46.875 FPS (1024 SPF)
Compression mode : Lossy
Stream size : 9.36 MiB (0%)
Source stream size : 9.36 MiB (0%)
Language : English
Encoded date : UTC 2021-10-04 17:17:50
Tagged date : UTC 2021-10-04 17:17:50

资源下载此资源下载价格为4金币,请先
如有发现链接失效,请联系网站管理
资源下载
下载价格:4 金币
如有发现链接失效,请联系网站管理
0

评论1

请先

  1. 有个新的舞蹈版不知有没
    27002431311-01
只要资源在百度网盘,分享的链接就有几率被和谐。如果遇到此类问题,联系网站管理员补链接即可。如果还有未尽事宜,我们将本着公平合理的原则,与您友好协调解决!
没有账号? 注册  忘记密码?