Hong Ju Hyun - Flower (Bugs-1080p-412M)

Hong Ju Hyun - Flower (Bugs-1080p-412M).mp4

文件信息:
Complete name : Hong Ju Hyun - Flower (Bugs-1080p-412M).mp4
Format : MPEG-4
Format profile : Base Media / Version 2
Codec ID : mp42 (mp42/mp41)
File size : 413 MiB
Duration : 3 min 6 s
Overall bit rate mode : Variable
Overall bit rate : 18.6 Mb/s
Encoded date : UTC 2021-08-17 04:18:41
Tagged date : UTC 2021-08-17 04:19:11
TIM : 00:00:00:00
TSC : 2400
TSZ : 100

Video
ID : 1
Format : AVC
Format/Info : Advanced Video Codec
Format profile : High@L4.2
Format settings : CABAC / 2 Ref Frames
Format settings, CABAC : Yes
Format settings, Reference fra : 2 frames
Format settings, GOP : M=1, N=48
Codec ID : avc1
Codec ID/Info : Advanced Video Coding
Duration : 3 min 6 s
Bit rate mode : Variable
Bit rate : 18.3 Mb/s
Maximum bit rate : 768 kb/s
Width : 1 920 pixels
Height : 1 080 pixels
Display aspect ratio : 16:9
Frame rate mode : Constant
Frame rate : 24.000 FPS
Color space : YUV
Chroma subsampling : 4:2:0
Bit depth : 8 bits
Scan type : Progressive
Bits/(Pixel*Frame) : 0.367
Stream size : 405 MiB (98%)
Language : English
Encoded date : UTC 2021-08-17 04:18:41
Tagged date : UTC 2021-08-17 04:18:41
Color range : Limited
Color primaries : BT.709
Transfer characteristics : BT.709
Matrix coefficients : BT.709
Codec configuration box : avcC

Audio
ID : 2
Format : AAC LC
Format/Info : Advanced Audio Codec Low Complexity
Codec ID : mp4a-40-2
Duration : 3 min 6 s
Source duration : 3 min 6 s
Bit rate mode : Variable
Bit rate : 317 kb/s
Maximum bit rate : 462 kb/s
Channel(s) : 2 channels
Channel layout : L R
Sampling rate : 48.0 kHz
Frame rate : 46.875 FPS (1024 SPF)
Compression mode : Lossy
Stream size : 7.04 MiB (2%)
Source stream size : 7.04 MiB (2%)
Language : English
Encoded date : UTC 2021-08-17 04:18:41
Tagged date : UTC 2021-08-17 04:18:41

资源下载此资源下载价格为2金币,请先
如有发现链接失效,请联系网站管理
资源下载
下载价格:2 金币
VIP优惠:免费
如有发现链接失效,请联系网站管理
0

评论0

请先

只要资源在百度网盘,分享的链接就有几率被和谐。如果遇到此类问题,联系网站管理员补链接即可。如果还有未尽事宜,我们将本着公平合理的原则,与您友好协调解决!
没有账号? 注册  忘记密码?