硬糖少女303 - 秋天前 [Web-4K-540M]

硬糖少女303 - 秋天前 [Web-4K-540M].mp4

文件信息:
Complete name : 硬糖少女303 - 秋天前 [Web-4K-540M].mp4
Format : MPEG-4
Format profile : Base Media
Codec ID : isom (isom/iso2/avc1/mp41)
File size : 540 MiB
Duration : 4 min 33 s
Overall bit rate : 16.6 Mb/s
Encoded date : UTC 2021-09-20 02:29:48
Tagged date : UTC 2021-09-20 02:30:02
TIM : 00:00:00:00
TSC : 25
TSZ : 1

Video
ID : 1
Format : AVC
Format/Info : Advanced Video Codec
Format profile : High@L5.1
Format settings : CABAC / 4 Ref Frames
Format settings, CABAC : Yes
Format settings, Reference fra : 4 frames
Codec ID : avc1
Codec ID/Info : Advanced Video Coding
Duration : 4 min 33 s
Bit rate : 16.1 Mb/s
Width : 3 840 pixels
Height : 2 160 pixels
Display aspect ratio : 16:9
Frame rate mode : Constant
Frame rate : 25.000 FPS
Color space : YUV
Chroma subsampling : 4:2:0
Bit depth : 8 bits
Scan type : Progressive
Bits/(Pixel*Frame) : 0.078
Stream size : 526 MiB (97%)
Encoded date : UTC 2021-09-20 02:29:48
Tagged date : UTC 2021-09-20 02:30:02
Codec configuration box : avcC

Audio #1
ID : 2
Format : AAC LC
Format/Info : Advanced Audio Codec Low Complexity
Codec ID : mp4a-40-2
Duration : 4 min 33 s
Bit rate mode : Constant
Bit rate : 192 kb/s
Channel(s) : 2 channels
Channel layout : L R
Sampling rate : 44.1 kHz
Frame rate : 43.066 FPS (1024 SPF)
Compression mode : Lossy
Stream size : 6.26 MiB (1%)
Language : Chinese
Default : Yes
Alternate group : 1
Encoded date : UTC 2021-09-20 02:29:48
Tagged date : UTC 2021-09-20 02:30:02

Audio #2
ID : 3
Format : AAC LC
Format/Info : Advanced Audio Codec Low Complexity
Codec ID : mp4a-40-2
Duration : 4 min 33 s
Bit rate mode : Constant
Bit rate : 253 kb/s
Channel(s) : 2 channels
Channel layout : L R
Sampling rate : 48.0 kHz
Frame rate : 46.875 FPS (1024 SPF)
Compression mode : Lossy
Stream size : 8.25 MiB (2%)
Language : Chinese
Default : Yes
Alternate group : 2
Encoded date : UTC 2021-09-20 02:29:48
Tagged date : UTC 2021-09-20 02:30:02

资源下载此资源下载价格为2金币,请先
如有发现链接失效,请联系网站管理
资源下载
下载价格:2 金币
VIP优惠:免费
如有发现链接失效,请联系网站管理
0

评论0

请先

只要资源在百度网盘,分享的链接就有几率被和谐。如果遇到此类问题,联系网站管理员补链接即可。如果还有未尽事宜,我们将本着公平合理的原则,与您友好协调解决!
没有账号? 注册  忘记密码?