ITZY - Joyful MomenT (Master-1080p-535M)

ITZY - Joyful MomenT (Master-1080p-535M).m4v

文件信息:
Complete name : ITZY - Joyful MomenT (Master-1080p-535M).m4v
Format : MPEG-4
Format profile : Base Media / Version 2
Codec ID : mp42 (mp42/mp41)
File size : 536 MiB
Duration : 2 min 22 s
Overall bit rate mode : Variable
Overall bit rate : 31.4 Mb/s
Encoded date : UTC 2021-08-25 09:23:59
Tagged date : UTC 2021-08-25 09:24:02
TIM : 00:00:04:00
TSC : 2997
TSZ : 125

Video
ID : 1
Format : AVC
Format/Info : Advanced Video Codec
Format profile : Main@L4.1
Format settings : CABAC / 3 Ref Frames
Format settings, CABAC : Yes
Format settings, Reference fra : 3 frames
Format settings, GOP : M=1, N=30
Codec ID : avc1
Codec ID/Info : Advanced Video Coding
Duration : 2 min 22 s
Bit rate : 31.1 Mb/s
Width : 1 920 pixels
Height : 1 080 pixels
Display aspect ratio : 16:9
Frame rate mode : Constant
Frame rate : 23.976 (24000/1001) FPS
Color space : YUV
Chroma subsampling : 4:2:0
Bit depth : 8 bits
Scan type : Progressive
Bits/(Pixel*Frame) : 0.626
Stream size : 530 MiB (99%)
Language : English
Encoded date : UTC 2021-08-25 09:23:59
Tagged date : UTC 2021-08-25 09:23:59
Codec configuration box : avcC

Audio
ID : 2
Format : AAC LC
Format/Info : Advanced Audio Codec Low Complexity
Codec ID : mp4a-40-2
Duration : 2 min 22 s
Source duration : 2 min 22 s
Bit rate mode : Variable
Bit rate : 317 kb/s
Maximum bit rate : 402 kb/s
Channel(s) : 2 channels
Channel layout : L R
Sampling rate : 48.0 kHz
Frame rate : 46.875 FPS (1024 SPF)
Compression mode : Lossy
Stream size : 5.41 MiB (1%)
Source stream size : 5.41 MiB (1%)
Language : English
Encoded date : UTC 2021-08-25 09:23:59
Tagged date : UTC 2021-08-25 09:23:59

资源下载此资源下载价格为2金币,请先
如有发现链接失效,请联系网站管理
资源下载
下载价格:2 金币
如有发现链接失效,请联系网站管理
0

评论0

请先

只要资源在百度网盘,分享的链接就有几率被和谐。如果遇到此类问题,联系网站管理员补链接即可。如果还有未尽事宜,我们将本着公平合理的原则,与您友好协调解决!
没有账号? 注册  忘记密码?