泰妍Taeyeon,Key - Hate That... (Master-ProRes-1080p-1.72G)

文件信息:

Complete name : 泰妍Taeyeon,Key - Hate That... (Master-1080p-1.72G).mov
Format : MPEG-4
Format profile : QuickTime
Codec ID : qt 0000.00 (qt )
File size : 1.72 GiB
Duration : 3 min 26 s
Overall bit rate mode : Variable
Overall bit rate : 71.7 Mb/s
Encoded date : UTC 2021-08-30 09:30:27
Tagged date : UTC 2021-08-30 09:30:52
Writing library : Apple QuickTime

Video
ID : 1
Format : ProRes
Format version : Version 0
Format profile : 422 LT
Codec ID : apcs
Duration : 3 min 26 s
Bit rate mode : Variable
Bit rate : 70.1 Mb/s
Width : 1 920 pixels
Height : 1 080 pixels
Display aspect ratio : 16:9
Frame rate mode : Constant
Frame rate : 23.976 (24000/1001) FPS
Color space : YUV
Chroma subsampling : 4:2:2
Scan type : Progressive
Bits/(Pixel*Frame) : 1.411
Stream size : 1.69 GiB (98%)
Title : Core Media Video
Writing library : abm0
Encoded date : UTC 2021-08-30 09:30:27
Tagged date : UTC 2021-08-30 09:30:52
Color primaries : BT.709
Matrix coefficients : BT.709

Audio
ID : 2
Format : PCM
Format settings : Little / Signed
Codec ID : lpcm
Duration : 3 min 26 s
Bit rate mode : Constant
Bit rate : 1 536 kb/s
Channel(s) : 2 channels
Channel layout : L R
Sampling rate : 48.0 kHz
Bit depth : 16 bits
Stream size : 37.8 MiB (2%)
Title : Core Media Audio
Encoded date : UTC 2021-08-30 09:30:27
Tagged date : UTC 2021-08-30 09:30:52

Other
ID : 3
Type : Time code
Format : QuickTime TC
Duration : 3 min 26 s
Frame rate : 23.976 (24000/1001) FPS
Time code of first frame : 01:00:00:00
Time code, striped : Yes
Title : Core Media Time Code / [KEY]Hate that you_re happy mv 4k 422hq
Encoded date : UTC 2021-08-30 09:30:27
Tagged date : UTC 2021-08-30 09:30:52

资源下载此资源下载价格为6金币,请先
如有发现链接失效,请联系网站管理
资源下载
下载价格:6 金币
VIP优惠:5 折
如有发现链接失效,请联系网站管理
0

评论0

请先

只要资源在百度网盘,分享的链接就有几率被和谐。如果遇到此类问题,联系网站管理员补链接即可。如果还有未尽事宜,我们将本着公平合理的原则,与您友好协调解决!
没有账号? 注册  忘记密码?