Rosé(BLACKPINK) - On The Ground (Master-ProRes-2160p-16.4G)

Rosé(BLACKPINK) - On The Ground (Master-ProRes-2160p-16.4G).mov

文件信息:
Complete name : Rosé(BLACKPINK) - On The Ground (Master-ProRes-2160p-16.4G).mov
Format : MPEG-4
Format profile : QuickTime
Codec ID : qt 2005.03 (qt )
File size : 16.4 GiB
Duration : 3 min 10 s
Overall bit rate mode : Variable
Overall bit rate : 743 Mb/s
Encoded date : UTC 2021-03-15 20:25:05
Tagged date : UTC 2021-03-15 20:45:50
Writing library : Apple QuickTime

Video
ID : 1
Format : ProRes
Format version : Version 0
Format profile : 422 HQ
Codec ID : apch
Duration : 3 min 10 s
Bit rate mode : Variable
Bit rate : 741 Mb/s
Width : 3 840 pixels
Height : 2 160 pixels
Display aspect ratio : 16:9
Frame rate mode : Constant
Frame rate : 23.976 (24000/1001) FPS
Color space : YUV
Chroma subsampling : 4:2:2
Scan type : Progressive
Bits/(Pixel*Frame) : 3.725
Stream size : 16.4 GiB (100%)
Writing library : arh0
Language : English
Encoded date : UTC 2021-03-15 20:25:05
Tagged date : UTC 2021-03-15 20:45:50
Color primaries : BT.709
Transfer characteristics : BT.709
Matrix coefficients : BT.709

Audio
ID : 2
Format : PCM
Format settings : Little / Signed
Codec ID : in24
Duration : 3 min 10 s
Bit rate mode : Constant
Bit rate : 2 304 kb/s
Channel(s) : 2 channels
Channel layout : L R
Sampling rate : 48.0 kHz
Bit depth : 24 bits
Stream size : 52.2 MiB (0%)
Language : English
Encoded date : UTC 2021-03-15 20:25:06
Tagged date : UTC 2021-03-15 20:45:54

资源下载此资源下载价格为20金币,请先
如有发现链接失效,请联系网站管理
资源下载
下载价格:20 金币
如有发现链接失效,请联系网站管理
1

评论2

请先

  1. 已购买 清晰度还是有的 但感觉不太像是master 因为开篇有审核标
    1816已购买3周前
  2. 这码率 厉害了!!
    keper853周前
只要资源在百度网盘,分享的链接就有几率被和谐。如果遇到此类问题,联系网站管理员补链接即可。如果还有未尽事宜,我们将本着公平合理的原则,与您友好协调解决!
没有账号? 注册  忘记密码?