Jennie(BLACKPINK) - Solo (Master-ProRes-1080p-3.56G).mov

Jennie(BLACKPINK) - Solo (Master-ProRes-1080p-3.56G).mov

文件信息:
Complete name : Jennie(BLACKPINK) - Solo (Master-ProRes-1080p-3.56G).mov
Format : MPEG-4
Format profile : QuickTime
Codec ID : qt 2005.03 (qt )
File size : 3.57 GiB
Duration : 2 min 57 s
Overall bit rate mode : Variable
Overall bit rate : 172 Mb/s
Encoded date : UTC 2018-11-14 21:30:06
Tagged date : UTC 2018-11-14 21:32:54
Writing library : Apple QuickTime

Video
ID : 1
Format : ProRes
Format version : Version 0
Format profile : 422 HQ
Codec ID : apch
Duration : 2 min 57 s
Bit rate mode : Variable
Bit rate : 170 Mb/s
Width : 1 920 pixels
Height : 1 080 pixels
Display aspect ratio : 16:9
Frame rate mode : Constant
Frame rate : 23.976 (24000/1001) FPS
Color space : YUV
Chroma subsampling : 4:2:2
Scan type : Progressive
Bits/(Pixel*Frame) : 3.422
Stream size : 3.52 GiB (99%)
Writing library : arh0
Language : English
Encoded date : UTC 2018-11-14 21:30:06
Tagged date : UTC 2018-11-14 21:32:54
Color primaries : BT.709
Transfer characteristics : BT.709
Matrix coefficients : BT.709

Audio
ID : 2
Format : PCM
Format settings : Little / Signed
Codec ID : in24
Duration : 2 min 57 s
Bit rate mode : Constant
Bit rate : 2 304 kb/s
Channel(s) : 2 channels
Channel layout : L R
Sampling rate : 48.0 kHz
Bit depth : 24 bits
Stream size : 48.8 MiB (1%)
Language : English
Encoded date : UTC 2018-11-14 21:30:06
Tagged date : UTC 2018-11-14 21:32:56

资源下载此资源下载价格为16金币,请先
如有发现链接失效,请联系网站管理
资源下载
下载价格:16 金币
如有发现链接失效,请联系网站管理
1

评论1

请先

  1. 不错
    ooo 0004周前
只要资源在百度网盘,分享的链接就有几率被和谐。如果遇到此类问题,联系网站管理员补链接即可。如果还有未尽事宜,我们将本着公平合理的原则,与您友好协调解决!
没有账号? 注册  忘记密码?