少女时代Tiffany – Lips On Lips (Web-4K-566M)

少女时代Tiffany – Lips On Lips (Web-4K-566M).mp4

文件信息:
Complete name : 少女时代Tiffany – Lips On Lips (Web-4K-566M).mp4
Format : MPEG-4
Format profile : Base Media / Version 2
Codec ID : mp42 (mp42/mp41/isom/avc1)
File size : 566 MiB
Duration : 3 min 45 s
Overall bit rate mode : Variable
Overall bit rate : 21.1 Mb/s
Encoded date : UTC 2020-08-22 02:31:03
Tagged date : UTC 2020-08-22 02:31:14
TIM : 00:00:00:00
TSC : 24000
TSZ : 1001

Video
ID : 1
Format : AVC
Format/Info : Advanced Video Codec
Format profile : Main@L5.1
Format settings : CABAC / 1 Ref Frames
Format settings, CABAC : Yes
Format settings, Reference fra : 1 frame
Format settings, GOP : M=1, N=24
Codec ID : avc1
Codec ID/Info : Advanced Video Coding
Duration : 3 min 45 s
Bit rate mode : Variable
Bit rate : 19.9 Mb/s
Maximum bit rate : 60.0 Mb/s
Width : 3 840 pixels
Height : 2 160 pixels
Display aspect ratio : 16:9
Frame rate mode : Variable
Frame rate : 23.976 (24000/1001) FPS
Minimum frame rate : 23.810 FPS
Maximum frame rate : 24.390 FPS
Color space : YUV
Chroma subsampling : 4:2:0
Bit depth : 8 bits
Scan type : Progressive
Bits/(Pixel*Frame) : 0.100
Stream size : 533 MiB (94%)
Encoded date : UTC 2020-08-22 02:31:03
Tagged date : UTC 2020-08-22 02:31:14
Codec configuration box : avcC

Audio #1
ID : 2
Format : AAC LC
Format/Info : Advanced Audio Codec Low Complexity
Codec ID : mp4a-40-2
Duration : 3 min 45 s
Bit rate mode : Constant
Bit rate : 265 kb/s
Channel(s) : 2 channels
Channel layout : L R
Sampling rate : 44.1 kHz
Frame rate : 43.066 FPS (1024 SPF)
Compression mode : Lossy
Stream size : 7.04 MiB (1%)
Default : Yes
Alternate group : 1
Encoded date : UTC 2020-08-22 02:31:03
Tagged date : UTC 2020-08-22 02:31:14

Audio #2
ID : 3
Format : ALAC
Codec ID : alac
Codec ID/Info : Apple Lossless Audio Codec
Duration : 3 min 45 s
Duration_LastFrame : -23 ms
Bit rate mode : Variable
Bit rate : 959 kb/s
Channel(s) : 2 channels
Sampling rate : 44.1 kHz
Bit depth : 16 bits
Stream size : 25.7 MiB (5%)
Language : English
Default : Yes
Alternate group : 2
Encoded date : UTC 2020-08-22 02:31:03
Tagged date : UTC 2020-08-22 02:31:14

资源下载此资源下载价格为2金币,请先
如有发现链接失效,请联系网站管理
资源下载
下载价格:2 金币
如有发现链接失效,请联系网站管理
0

评论0

请先

只要资源在百度网盘,分享的链接就有几率被和谐。如果遇到此类问题,联系网站管理员补链接即可。如果还有未尽事宜,我们将本着公平合理的原则,与您友好协调解决!
没有账号? 注册  忘记密码?