Weeekly – 7days Tension (Bugs-2160p-1.2G)

Weeekly - 7days Tension (Bugs-2160p-1.2G).mp4

文件信息:
Complete name : Weeekly7days Tension (Bugs-2160p-1.2G).mp4
Format : MPEG-4
Format profile : Base Media / Version 2
Codec ID : mp42 (isom/mp41/mp42)
File size : 1.20 GiB
Duration : 3 min 24 s
Overall bit rate mode : Variable
Overall bit rate : 50.6 Mb/s
Movie name : Master
Movie_More : This video is about Master
Performer : JIMMY
Encoded date : UTC 2021-05-27 01:41:37
Tagged date : UTC 2021-05-27 01:48:14
thmb : ÿØÿà

Video
ID : 2
Format : AVC
Format/Info : Advanced Video Codec
Format profile : High@L5.1
Format settings : CABAC / 2 Ref Frames
Format settings, CABAC : Yes
Format settings, Reference fra : 2 frames
Codec ID : avc1
Codec ID/Info : Advanced Video Coding
Duration : 3 min 24 s
Bit rate mode : Variable
Bit rate : 50.4 Mb/s
Maximum bit rate : 768 kb/s
Width : 3 840 pixels
Height : 2 160 pixels
Display aspect ratio : 16:9
Frame rate mode : Constant
Frame rate : 23.976 (24000/1001) FPS
Color space : YUV
Chroma subsampling : 4:2:0
Bit depth : 8 bits
Scan type : Progressive
Bits/(Pixel*Frame) : 0.254
Stream size : 1.20 GiB (100%)
Title : Core Media Video
Encoded date : UTC 2021-05-27 01:41:37
Tagged date : UTC 2021-05-27 01:48:14
Color range : Limited
Color primaries : BT.709
Transfer characteristics : BT.709
Matrix coefficients : BT.709
Codec configuration box : avcC

Audio
ID : 1
Format : AAC LC
Format/Info : Advanced Audio Codec Low Complexity
Codec ID : mp4a-40-2
Duration : 3 min 24 s
Source duration : 3 min 24 s
Bit rate mode : Constant
Bit rate : 128 kb/s
Channel(s) : 2 channels
Channel layout : L R
Sampling rate : 48.0 kHz
Frame rate : 46.875 FPS (1024 SPF)
Compression mode : Lossy
Stream size : 3.10 MiB (0%)
Source stream size : 3.10 MiB (0%)
Title : Core Media Audio
Language : Korean
Encoded date : UTC 2021-05-27 01:41:37
Tagged date : UTC 2021-05-27 01:48:14

资源下载此资源下载价格为3金币,请先
如有发现链接失效,请联系网站管理
资源下载
下载价格:3 金币
如有发现链接失效,请联系网站管理
0

评论0

请先

只要资源在百度网盘,分享的链接就有几率被和谐。如果遇到此类问题,联系网站管理员补链接即可。如果还有未尽事宜,我们将本着公平合理的原则,与您友好协调解决!
没有账号? 注册  忘记密码?