GINJO – The Riot (Feat. TEN, XIAOJUN of WayV) (Master-2160p-1.38G)

GINJO - The Riot (Feat. TEN, XIAOJUN of WayV) (Master-2160p-1.38G).mov

文件信息:
Complete name : GINJOThe Riot (Feat. TEN, XIAOJUN of WayV) (Master-2160p-1.38G).mov
Format : MPEG-4
Format profile : QuickTime
Codec ID : qt 0000.00 (qt )
File size : 1.39 GiB
Duration : 1 min 57 s
Overall bit rate mode : Variable
Overall bit rate : 102 Mb/s
Movie name : 0530_promo_color_2 (Resolve)
Description : This video is about 0530_promo_color_2 (Resolve)
Encoded date : UTC 2020-05-30 16:59:39
Tagged date : UTC 2020-05-30 17:01:31
Writing library : Apple QuickTime
com.apple.quicktime.keywords : 0530_promo_color_2 (Resolve),24-04-2020,파티클,fire-pack-l8pwre6,fire-983csr4,hot explosions,fire-u7qhbde,fire-gzmb38w,fire-dgaq43x
com.apple.quicktime.author : Kimdd
com.apple.quicktime.title : 0530_promo_color_2 (Resolve)

Video
ID : 2
Format : ProRes
Format version : Version 0
Format profile : 422 Proxy
Codec ID : apco
Duration : 1 min 57 s
Bit rate mode : Variable
Bit rate : 99.2 Mb/s
Width : 3 840 pixels
Height : 2 160 pixels
Display aspect ratio : 16:9
Frame rate mode : Constant
Frame rate : 23.976 (24000/1001) FPS
Color space : YUV
Chroma subsampling : 4:2:2
Scan type : Progressive
Bits/(Pixel*Frame) : 0.499
Stream size : 1.35 GiB (97%)
Title : Core Media Video
Writing library : Apple
Encoded date : UTC 2020-05-30 16:59:39
Tagged date : UTC 2020-05-30 17:01:31
Color primaries : BT.709
Transfer characteristics : BT.709
Matrix coefficients : BT.709

Audio
ID : 1
Format : PCM
Format settings : Little / Signed
Codec ID : lpcm
Duration : 1 min 57 s
Bit rate mode : Constant
Bit rate : 2 304 kb/s
Channel(s) : 2 channels
Channel layout : L R
Sampling rate : 48.0 kHz
Bit depth : 24 bits
Stream size : 32.2 MiB (2%)
Title : Core Media Audio
Encoded date : UTC 2020-05-30 16:59:39
Tagged date : UTC 2020-05-30 17:01:31

Other
ID : 3
Type : Time code
Format : QuickTime TC
Duration : 1 min 57 s
Frame rate : 23.976 (24000/1001) FPS
Time code of first frame : 00:00:00:00
Time code, striped : Yes
Title : Core Media Time Code
Encoded date : UTC 2020-05-30 16:59:39
Tagged date : UTC 2020-05-30 17:01:31

资源下载此资源下载价格为4金币,请先
如有发现链接失效,请联系网站管理
资源下载
下载价格:4 金币
VIP优惠:免费
如有发现链接失效,请联系网站管理
0

评论0

请先

只要资源在百度网盘,分享的链接就有几率被和谐。如果遇到此类问题,联系网站管理员补链接即可。如果还有未尽事宜,我们将本着公平合理的原则,与您友好协调解决!
没有账号? 注册  忘记密码?