蔡依林 – 大艺术家 (Master-ProRes-1080p-5.47G)

蔡依林 - 大艺术家 (Master-ProRes-1080p-5.47G).mov

文件信息:
Complete name : 蔡依林大艺术家 (Master-ProRes-1080p-5.47G).mov
Format : MPEG-4
Format profile : QuickTime
Codec ID : qt 2005.03 (qt )
File size : 5.48 GiB
Duration : 4 min 14 s
Overall bit rate mode : Variable
Overall bit rate : 185 Mb/s
Encoded date : UTC 2012-08-23 10:14:16
Tagged date : UTC 2012-08-23 10:22:18
Writing library : Apple QuickTime

Video
ID : 2
Format : ProRes
Format version : Version 0
Format profile : 422 HQ
Codec ID : apch
Duration : 4 min 14 s
Bit rate mode : Variable
Bit rate : 184 Mb/s
Width : 1 920 pixels
Height : 1 080 pixels
Display aspect ratio : 16:9
Frame rate mode : Constant
Frame rate : 23.976 (24000/1001) FPS
Color space : YUV
Chroma subsampling : 4:2:2
Scan type : Progressive
Bits/(Pixel*Frame) : 3.697
Stream size : 5.43 GiB (99%)
Writing library : Apple
Language : English
Encoded date : UTC 2012-08-23 10:12:45
Tagged date : UTC 2012-08-23 10:22:18
Color primaries : BT.709
Transfer characteristics : BT.709
Matrix coefficients : BT.709

Audio
ID : 3
Format : PCM
Format settings : Little / Signed
Codec ID : sowt
Duration : 4 min 13 s
Bit rate mode : Constant
Bit rate : 1 411.2 kb/s
Channel(s) : 2 channels
Channel layout : L R
Sampling rate : 44.1 kHz
Bit depth : 16 bits
Stream size : 42.7 MiB (1%)
Language : English
Encoded date : UTC 2012-08-23 10:12:57
Tagged date : UTC 2012-08-23 10:22:18

资源下载此资源下载价格为12金币,请先
如有发现链接失效,请联系网站管理
资源下载
下载价格:12 金币
如有发现链接失效,请联系网站管理
0

评论0

请先

只要资源在百度网盘,分享的链接就有几率被和谐。如果遇到此类问题,联系网站管理员补链接即可。如果还有未尽事宜,我们将本着公平合理的原则,与您友好协调解决!
没有账号? 注册  忘记密码?