蔡依林 – PLAY我呸 (无字幕无水印版) (Master-1080p-1.9G)

蔡依林 - PLAY我呸 (无字幕无水印版) (Master-1080p-1.9G).mov

文件信息:
Complete name : 蔡依林PLAY我呸 (无字幕无水印版) (Master-1080p-1.9G).mov
Format : MPEG-4
Format profile : QuickTime
Codec ID : qt 2005.03 (qt )
File size : 1.90 GiB
Duration : 3 min 20 s
Overall bit rate : 81.7 Mb/s
Encoded date : UTC 2014-10-31 15:33:07
Tagged date : UTC 2014-10-31 15:46:34
Writing library : Apple QuickTime
TIM : 00:00:00:00
TSC : 2997
TSZ : 125

Video
ID : 1
Format : AVC
Format/Info : Advanced Video Codec
Format profile : Main@L5.1
Format settings : 2 Ref Frames
Format settings, CABAC : No
Format settings, Reference fra : 2 frames
Format settings, GOP : M=1, N=30
Codec ID : avc1
Codec ID/Info : Advanced Video Coding
Duration : 3 min 20 s
Bit rate : 80.1 Mb/s
Width : 1 920 pixels
Height : 1 080 pixels
Display aspect ratio : 16:9
Frame rate mode : Constant
Frame rate : 23.976 (24000/1001) FPS
Color space : YUV
Chroma subsampling : 4:2:0
Bit depth : 8 bits
Scan type : Progressive
Bits/(Pixel*Frame) : 1.612
Stream size : 1.87 GiB (98%)
Title : Apple µ¯∞T¥C≈È≥B≤zæπ / Apple ¥¿®≠∏ÍÆ∆≥B≤zæπ
Language : English
Encoded date : UTC 2014-10-31 15:33:07
Tagged date : UTC 2014-10-31 15:46:34
Color range : Limited
Color primaries : BT.709
Transfer characteristics : BT.709
Matrix coefficients : BT.709
Codec configuration box : avcC

Audio
ID : 2
Format : PCM
Format settings : Little / Signed
Codec ID : sowt
Duration : 3 min 20 s
Source duration : 3 min 20 s
Bit rate mode : Constant
Bit rate : 1 536 kb/s
Channel(s) : 2 channels
Channel layout : L R
Sampling rate : 48.0 kHz
Bit depth : 16 bits
Stream size : 36.7 MiB (2%)
Source stream size : 36.7 MiB (2%)
Title : Apple ¡n≠µ¥C≈È≥B≤zæπ / Apple ¥¿®≠∏ÍÆ∆≥B≤zæπ
Language : English
Encoded date : UTC 2014-10-31 15:33:07
Tagged date : UTC 2014-10-31 15:46:34

Other
ID : 3
Type : Time code
Format : QuickTime TC
Duration : 3 min 20 s
Frame rate : 23.976 (23976/1000) FPS
Time code of first frame : 00:00:00:00
Time code, striped : Yes
Title : Æ…∂°ΩX¥C≈È≥B≤zæπ / Apple ¥¿®≠∏ÍÆ∆≥B≤zæπ
Language : English
Encoded date : UTC 2014-10-31 15:46:34
Tagged date : UTC 2014-10-31 15:46:34

资源下载此资源下载价格为6金币,请先
如有发现链接失效,请联系网站管理
资源下载
下载价格:6 金币
如有发现链接失效,请联系网站管理
0

评论0

请先

只要资源在百度网盘,分享的链接就有几率被和谐。如果遇到此类问题,联系网站管理员补链接即可。如果还有未尽事宜,我们将本着公平合理的原则,与您友好协调解决!
没有账号? 注册  忘记密码?