李代沫 – 不爱了是我唯一撒过的谎 (Master-2160p-520M)

李代沫 - 不爱了是我唯一撒过的谎 (Master-2160p-520M).mp4

文件信息:
Complete name : 李代沫不爱了是我唯一撒过的谎 (Master-2160p-520M).mp4
Format : MPEG-4
Format profile : Base Media
Codec ID : isom (isom/iso2/avc1/mp41)
File size : 521 MiB
Duration : 4 min 8 s
Overall bit rate mode : Variable
Overall bit rate : 17.5 Mb/s
Encoded date : UTC 2021-05-11 13:38:30
Tagged date : UTC 2021-05-11 13:38:52
TIM : 00:00:00:00
TSC : 25
TSZ : 1

Video
ID : 1
Format : AVC
Format/Info : Advanced Video Codec
Format profile : High@L5.1
Format settings : CABAC / 4 Ref Frames
Format settings, CABAC : Yes
Format settings, Reference fra : 4 frames
Codec ID : avc1
Codec ID/Info : Advanced Video Coding
Duration : 4 min 8 s
Bit rate : 15.7 Mb/s
Width : 4 096 pixels
Height : 2 160 pixels
Display aspect ratio : 1.896
Frame rate mode : Constant
Frame rate : 25.000 FPS
Color space : YUV
Chroma subsampling : 4:2:0
Bit depth : 8 bits
Scan type : Progressive
Bits/(Pixel*Frame) : 0.071
Stream size : 465 MiB (89%)
Encoded date : UTC 2021-05-11 13:38:30
Tagged date : UTC 2021-05-11 13:38:52
Color range : Limited
Color primaries : BT.709
Transfer characteristics : BT.709
Matrix coefficients : BT.709
Codec configuration box : avcC

Audio #1
ID : 2
Format : AAC LC
Format/Info : Advanced Audio Codec Low Complexity
Codec ID : mp4a-40-2
Duration : 4 min 8 s
Bit rate mode : Constant
Bit rate : 256 kb/s
Channel(s) : 2 channels
Channel layout : L R
Sampling rate : 48.0 kHz
Frame rate : 46.875 FPS (1024 SPF)
Compression mode : Lossy
Stream size : 7.60 MiB (1%)
Language : Chinese
Default : Yes
Alternate group : 1
Encoded date : UTC 2021-05-11 13:38:30
Tagged date : UTC 2021-05-11 13:38:52

Audio #2
ID : 3
Format : ALAC
Codec ID : alac
Codec ID/Info : Apple Lossless Audio Codec
Duration : 4 min 8 s
Duration_LastFrame : -21 ms
Bit rate mode : Variable
Bit rate : 826 kb/s
Channel(s) : 2 channels
Sampling rate : 48.0 kHz
Bit depth : 16 bits
Stream size : 24.5 MiB (5%)
Language : Chinese
Default : Yes
Alternate group : 2
Encoded date : UTC 2021-05-11 13:38:30
Tagged date : UTC 2021-05-11 13:38:52

Audio #3
ID : 4
Format : ALAC
Codec ID : alac
Codec ID/Info : Apple Lossless Audio Codec
Duration : 4 min 8 s
Duration_LastFrame : -29 ms
Bit rate mode : Variable
Bit rate : 777 kb/s
Channel(s) : 2 channels
Sampling rate : 44.1 kHz
Bit depth : 16 bits
Stream size : 23.0 MiB (4%)
Language : Chinese
Default : Yes
Alternate group : 3
Encoded date : UTC 2021-05-11 13:38:30
Tagged date : UTC 2021-05-11 13:38:52

资源下载此资源下载价格为3金币,请先
如有发现链接失效,请联系网站管理
资源下载
下载价格:3 金币
如有发现链接失效,请联系网站管理
0

评论0

请先

只要资源在百度网盘,分享的链接就有几率被和谐。如果遇到此类问题,联系网站管理员补链接即可。如果还有未尽事宜,我们将本着公平合理的原则,与您友好协调解决!
没有账号? 注册  忘记密码?