Ailee – U&I (Bugs-1080p-734M)

Ailee - U&I (Bugs-1080p-734M).mp4

文件信息:
Complete name : AileeU&I (Bugs-1080p-734M).mp4
Format : MPEG-4
Format profile : Base Media / Version 2
Codec ID : mp42 (mp42/mp41)
File size : 734 MiB
Duration : 3 min 36 s
Overall bit rate mode : Variable
Overall bit rate : 28.5 Mb/s
Encoded date : UTC 2013-07-11 08:34:37
Tagged date : UTC 2013-07-11 08:34:55
TIM : 01:03:21:23
TSC : 24000
TSZ : 1001

Video
ID : 1
Format : AVC
Format/Info : Advanced Video Codec
Format profile : Main@L4.2
Format settings : CABAC / 3 Ref Frames
Format settings, CABAC : Yes
Format settings, Reference fra : 3 frames
Codec ID : avc1
Codec ID/Info : Advanced Video Coding
Duration : 3 min 36 s
Source duration : 3 min 36 s
Bit rate : 28.3 Mb/s
Width : 1 920 pixels
Height : 1 080 pixels
Display aspect ratio : 16:9
Frame rate mode : Variable
Frame rate : 23.976 (24000/1001) FPS
Minimum frame rate : 23.976 FPS
Maximum frame rate : 24.000 FPS
Standard : NTSC
Color space : YUV
Chroma subsampling : 4:2:0
Bit depth : 8 bits
Scan type : Progressive
Bits/(Pixel*Frame) : 0.568
Stream size : 728 MiB (99%)
Source stream size : 728 MiB (99%)
Language : English
Encoded date : UTC 2013-07-11 08:34:37
Tagged date : UTC 2013-07-11 08:34:37
Color range : Limited
mdhd_Duration : 216049
Codec configuration box : avcC

Audio
ID : 2
Format : AAC LC
Format/Info : Advanced Audio Codec Low Complexity
Codec ID : mp4a-40-2
Duration : 3 min 36 s
Source duration : 3 min 36 s
Bit rate mode : Variable
Bit rate : 253 kb/s
Maximum bit rate : 375 kb/s
Channel(s) : 2 channels
Channel layout : L R
Sampling rate : 48.0 kHz
Frame rate : 46.875 FPS (1024 SPF)
Compression mode : Lossy
Stream size : 6.53 MiB (1%)
Source stream size : 6.53 MiB (1%)
Language : English
Encoded date : UTC 2013-07-11 08:34:37
Tagged date : UTC 2013-07-11 08:34:37
mdhd_Duration : 216085

资源下载此资源下载价格为4金币,请先
如有发现链接失效,请联系网站管理
资源下载
下载价格:4 金币
如有发现链接失效,请联系网站管理
0

评论0

请先

只要资源在百度网盘,分享的链接就有几率被和谐。如果遇到此类问题,联系网站管理员补链接即可。如果还有未尽事宜,我们将本着公平合理的原则,与您友好协调解决!
没有账号? 注册  忘记密码?