Ailee – Is You (Bugs-1080p-732M)

Ailee - Is You (Bugs-1080p-732M).mp4

文件信息:
Complete name : AileeIs You (Bugs-1080p-732M).mp4
Format : MPEG-4
Format profile : Base Media / Version 2
Codec ID : mp42 (mp42/mp41)
File size : 733 MiB
Duration : 4 min 22 s
Overall bit rate mode : Variable
Overall bit rate : 23.4 Mb/s
Encoded date : UTC 2018-12-20 09:09:16
Tagged date : UTC 2018-12-20 09:09:23
TIM : 00:00:00:00
TSC : 30000
TSZ : 1001

Video
ID : 1
Format : AVC
Format/Info : Advanced Video Codec
Format profile : Main@L4.1
Format settings : CABAC / 4 Ref Frames
Format settings, CABAC : Yes
Format settings, Reference fra : 4 frames
Codec ID : avc1
Codec ID/Info : Advanced Video Coding
Duration : 4 min 22 s
Bit rate : 23.1 Mb/s
Width : 1 920 pixels
Height : 1 080 pixels
Display aspect ratio : 16:9
Frame rate mode : Constant
Frame rate : 29.970 (30000/1001) FPS
Color space : YUV
Chroma subsampling : 4:2:0
Bit depth : 8 bits
Scan type : Progressive
Bits/(Pixel*Frame) : 0.372
Stream size : 723 MiB (99%)
Language : English
Encoded date : UTC 2018-12-20 09:09:16
Tagged date : UTC 2018-12-20 09:09:16
Color range : Limited
Color primaries : BT.709
Transfer characteristics : BT.709
Matrix coefficients : BT.709
Codec configuration box : avcC

Audio
ID : 2
Format : AAC LC
Format/Info : Advanced Audio Codec Low Complexity
Codec ID : mp4a-40-2
Duration : 4 min 22 s
Source duration : 4 min 22 s
Bit rate mode : Variable
Bit rate : 318 kb/s
Maximum bit rate : 396 kb/s
Channel(s) : 2 channels
Channel layout : L R
Sampling rate : 44.1 kHz
Frame rate : 43.066 FPS (1024 SPF)
Compression mode : Lossy
Stream size : 9.93 MiB (1%)
Source stream size : 9.93 MiB (1%)
Language : English
Encoded date : UTC 2018-12-20 09:09:16
Tagged date : UTC 2018-12-20 09:09:16

资源下载此资源下载价格为2金币,请先
如有发现链接失效,请联系网站管理
资源下载
下载价格:2 金币
如有发现链接失效,请联系网站管理
0

评论0

请先

只要资源在百度网盘,分享的链接就有几率被和谐。如果遇到此类问题,联系网站管理员补链接即可。如果还有未尽事宜,我们将本着公平合理的原则,与您友好协调解决!
没有账号? 注册  忘记密码?